<?xml version="1.0" standalone="no"?>
<!DOCTYPE svg PUBLIC "-//W3C//DTD SVG 1.1//EN" "http://www.w3.org/Graphics/SVG/1.1/DTD/svg11.dtd" >
<svg xmlns="http://www.w3.org/2000/svg">
<metadata>Generated by IcoMoon</metadata>
<defs>
<font id="newspoint" horiz-adv-x="1024">
<font-face units-per-em="1024" ascent="960" descent="-64" />
<missing-glyph horiz-adv-x="1024" />
<glyph unicode="&#x20;" horiz-adv-x="512" d="" />
<glyph unicode="&#xe900;" glyph-name="fb" d="M511.958 945.338c-274.201 0-496.485-222.284-496.485-496.485 0-247.81 181.558-453.207 418.909-490.451v346.936h-126.061v143.515h126.061v109.382c0 124.432 74.123 193.164 187.529 193.164 54.321 0 111.138-9.697 111.138-9.697v0-122.182h-62.607c-61.675 0-80.908-38.271-80.908-77.534v-93.132h137.697l-22.012-143.515h-115.685v-346.936c237.351 37.244 418.909 242.641 418.909 490.451 0 274.201-222.284 496.485-496.485 496.485z" />
<glyph unicode="&#xe901;" glyph-name="ig" d="M518.727 951.371c274.202 0 496.485-222.284 496.485-496.486 0-274.199-222.282-496.485-496.485-496.485-274.201 0-496.485 222.286-496.485 496.485 0 274.202 222.284 496.486 496.485 496.486zM727.723 757.302c-20.303 7.89-43.504 13.285-77.476 14.836-34.040 1.553-44.91 1.921-131.59 1.921-86.683 0-97.553-0.367-131.593-1.921-33.972-1.551-57.173-6.945-77.476-14.836-20.988-8.157-38.787-19.070-56.531-36.813s-28.657-35.543-36.813-56.531c-7.89-20.302-13.285-43.504-14.836-77.476-1.553-34.040-1.921-44.91-1.921-131.593 0-86.68 0.367-97.55 1.921-131.59 1.551-33.975 6.945-57.173 14.836-77.476 8.157-20.986 19.070-38.788 36.813-56.531s35.543-28.656 56.531-36.814c20.303-7.891 43.504-13.284 77.476-14.836 34.040-1.552 44.91-1.921 131.593-1.921 86.68 0 97.55 0.369 131.59 1.921 33.972 1.552 57.173 6.945 77.476 14.836 20.989 8.158 38.788 19.071 56.531 36.814s28.656 35.542 36.814 56.531c7.888 20.303 13.284 43.501 14.836 77.476 1.552 34.040 1.921 44.91 1.921 131.59 0 86.683-0.369 97.553-1.921 131.593-1.552 33.972-6.945 57.173-14.836 77.476-8.158 20.988-19.071 38.787-36.814 56.531s-35.542 28.657-56.531 36.813zM389.682 714.691c33.659 1.535 43.75 1.86 128.971 1.86l0.003-0.001c85.222 0 95.316-0.324 128.968-1.86 31.12-1.42 48.019-6.62 59.268-10.989 14.898-5.79 25.529-12.708 36.696-23.876 11.171-11.169 18.088-21.802 23.878-36.697 4.369-11.248 9.567-28.148 10.988-59.265 1.536-33.659 1.862-43.75 1.862-128.974 0-85.222-0.326-95.316-1.862-128.968-1.421-31.12-6.619-48.019-10.988-59.268-5.79-14.898-12.71-25.529-23.878-36.696-11.168-11.171-21.799-18.088-36.696-23.878-11.248-4.369-28.148-9.567-59.268-10.988-33.649-1.536-43.743-1.862-128.968-1.862-85.228 0-95.322 0.326-128.971 1.862-31.12 1.421-48.019 6.619-59.268 10.988-14.895 5.79-25.528 12.71-36.697 23.878s-18.086 21.799-23.876 36.696c-4.37 11.248-9.569 28.148-10.989 59.265-1.535 33.659-1.86 43.75-1.86 128.974 0 85.222 0.324 95.316 1.86 128.968 1.42 31.12 6.62 48.019 10.989 59.268 5.79 14.896 12.708 25.528 23.876 36.698 11.169 11.168 21.803 18.086 36.697 23.876 11.248 4.37 28.148 9.569 59.265 10.989zM518.656 348.501c58.756 0 106.39 47.632 106.39 106.387 0 58.759-47.635 106.39-106.39 106.39-58.759 0-106.39-47.632-106.39-106.39 0-58.756 47.632-106.387 106.39-106.387zM518.656 618.788c-90.518 0-163.899-73.38-163.899-163.899s73.38-163.896 163.899-163.896c90.515 0 163.896 73.377 163.896 163.896s-73.38 163.899-163.896 163.899zM689.028 663.563c-21.153 0-38.301-17.146-38.301-38.299s17.147-38.301 38.301-38.301c21.15 0 38.301 17.147 38.301 38.301 0 21.15-17.147 38.299-38.301 38.299z" />
<glyph unicode="&#xe902;" glyph-name="pt" d="M514.628 951.368c-274.416 0-496.893-222.112-496.893-496.076 0-210.271 130.869-389.92 315.721-462.188-4.498 39.196-8.179 99.624 1.636 142.495 8.997 38.788 58.073 246.609 58.073 246.609v0c0 0-14.723 29.806-14.723 73.493 0 69.001 40.079 120.447 89.972 120.447 42.532 0 62.981-31.847 62.981-69.818 0-42.462-26.992-106.156-41.305-165.359-11.86-49.404 24.947-89.825 73.614-89.825 88.336 0 156.225 93.091 156.225 227.011 0 118.813-85.474 201.697-207.754 201.697-141.502 0-224.522-105.748-224.522-215.171 0-42.462 16.359-88.191 36.807-113.097 4.090-4.899 4.499-9.391 3.272-14.29-3.681-15.515-12.269-49.404-13.905-56.345-2.045-8.982-7.361-11.024-16.768-6.533-62.163 28.989-101.014 119.222-101.014 192.306 0 156.377 113.692 300.096 328.399 300.096 172.174 0 306.315-122.488 306.315-286.622 0-171.075-107.967-308.67-257.648-308.67-50.303 0-97.743 26.131-113.692 57.161 0 0-24.947-94.724-31.082-117.997-11.042-43.279-41.305-97.174-61.754-130.246 46.622-14.29 95.698-22.048 147.227-22.048 274.416 0 496.893 222.111 496.893 496.076 0.818 274.781-221.659 496.893-496.075 496.893z" />
<glyph unicode="&#xe903;" glyph-name="tw" d="M227.057 247.091v0c0 0 0 0 0 0zM227.056 247.091c9.178-1.178 18.511-1.749 28.545-1.749 54.424 0 105.844 17.662 148.684 51.152-51.377 0.97-96.251 34.39-111.714 83.152 7.498-1.489 14.883-2.216 22.58-2.216 10.701 0 21.307 1.403 31.532 4.242-55.662 11.307-96.061 60.675-96.061 117.368v1.541c17.013-9.42 35.221-14.493 54.113-14.944-33.42 22.182-53.376 59.394-53.376 99.584 0 20.97 5.602 41.749 16.13 60.086 60.875-74.718 150.814-120.364 246.779-125.177-2.147 8.45-3.229 17.628-3.229 27.29 0 66.043 53.68 119.74 119.662 119.74 33.533 0 64.554-13.42 87.385-37.801 26.788 5.333 52.355 15.134 75.957 29.074-8.805-27.637-27.515-51.152-52.623-66.303 23.836 2.909 46.978 9.247 68.762 18.909-16.234-24.208-36.363-45.056-59.827-62.061 0.199-4.97 0.199-10.286 0.199-15.394 0-82.701-31.974-166.389-87.714-229.61-44.623-50.632-124.71-110.996-252.831-110.996-65.55 0-128.822 18.718-182.97 54.078zM851.906 103.819c93.775 93.766 145.42 218.424 145.42 351.030 0 132.641-51.645 257.333-145.42 351.1-93.775 93.784-218.459 145.42-351.082 145.42-132.615 0-257.282-51.636-351.039-145.42-93.758-93.766-145.394-218.459-145.394-351.1 0-132.606 51.637-257.264 145.394-351.030 93.758-93.749 218.424-145.385 351.039-145.385s257.299 51.636 351.082 145.385z" />
<glyph unicode="&#xe904;" glyph-name="yt" d="M446.356 363.282l162.164 91.567-162.208 91.706v-183.307zM752.243 659.161c26.719-7.186 47.74-28.208 54.849-54.909 12.823-47.879 12.97-148.398 12.97-149.403s-0.147-101.472-12.97-149.368c-7.143-26.684-28.156-47.723-54.849-54.84-47.861-12.814-240.537-12.97-242.476-12.97s-194.606 0.156-242.468 12.97c-26.693 7.117-47.714 28.156-54.857 54.84-12.823 47.896-12.978 148.364-12.978 149.368s0.156 101.524 12.978 149.403c7.117 26.701 28.139 47.723 54.857 54.909 47.862 12.762 240.528 12.901 242.468 12.901s194.615-0.139 242.476-12.901zM860.849 103.819c93.775 93.766 145.42 218.424 145.42 351.030 0 132.641-51.645 257.333-145.42 351.1-93.775 93.784-218.459 145.42-351.082 145.42s-257.307-51.636-351.082-145.42c-93.775-93.766-145.42-218.459-145.42-351.1 0-132.606 51.645-257.264 145.42-351.030 93.784-93.749 218.467-145.385 351.082-145.385s257.299 51.636 351.082 145.385z" />
<glyph unicode="&#xe905;" glyph-name="message" horiz-adv-x="1252" d="M82.326 860.831c15.923 17.37 42.912 18.544 60.283 2.621l483.169-442.905 483.169 442.905c17.368 15.923 44.362 14.75 60.285-2.621s14.746-44.36-2.623-60.283l-512-469.336c-16.31-14.95-41.353-14.95-57.663 0l-511.999 469.336c-17.37 15.923-18.544 42.912-2.621 60.283zM113.778 832v-725.333c0-23.563 19.102-42.667 42.667-42.667h938.667c23.563 0 42.667 19.103 42.667 42.667v725.333h-1024zM113.778 917.333h1024c47.127 0 85.333-38.205 85.333-85.333v-725.333c0-70.576-57.418-128-128-128h-938.667c-70.579 0-128 57.424-128 128v725.333c0 47.128 38.205 85.333 85.333 85.333zM564.102 476.832c15.926-17.37 14.748-44.36-2.619-60.283l-405.732-371.937c-17.37-15.929-44.36-14.751-60.283 2.617s-14.751 44.362 2.619 60.285l405.732 371.937c17.37 15.923 44.36 14.75 60.283-2.62zM687.394 476.832c15.923 17.37 42.917 18.543 60.285 2.62l405.732-371.937c17.368-15.923 18.546-42.917 2.623-60.285-15.929-17.368-42.917-18.546-60.285-2.617l-405.732 371.937c-17.368 15.923-18.546 42.913-2.623 60.283z" />
<glyph unicode="&#xe906;" glyph-name="in" d="M512-48.485c-98.195 0.003-194.185 29.122-275.83 83.679s-145.279 132.099-182.854 222.819c-37.575 90.723-47.405 190.551-28.245 286.86 19.16 96.306 66.447 184.771 135.884 254.203 93.111 93.111 219.397 145.421 351.077 145.421s257.964-52.309 351.077-145.421c93.113-93.111 145.42-219.397 145.42-351.077s-52.308-257.964-145.42-351.077c-46.006-46.244-100.724-82.907-160.991-107.864-60.267-24.961-124.885-37.72-190.116-37.544v0zM616.448 475.431c36.585 0 55.855-25.755 55.855-74.473v-174.204h102.4v210.137c1.133 17.985-1.3 36.014-7.156 53.056-5.859 17.039-15.028 32.756-26.978 46.241-11.522 11.034-25.162 19.62-40.094 25.231-14.935 5.61-30.853 8.133-46.791 7.413-19.984 0.254-39.691-4.658-57.214-14.265s-32.265-23.583-42.797-40.566v44.684h-98.335v-332.024h98.552v174.328c0 48.035 22.218 74.504 62.588 74.504l-0.031-0.062zM286.875 558.716v-332.024h102.741v332.024h-102.741zM337.765 724.697c-12.145 0.105-24.045-3.402-34.194-10.073s-18.085-16.208-22.804-27.399c-4.719-11.19-6.006-23.531-3.699-35.454s8.105-22.893 16.658-31.516c8.553-8.62 19.475-14.51 31.378-16.912 11.906-2.405 24.256-1.219 35.483 3.41 11.23 4.627 20.831 12.487 27.583 22.578 6.755 10.094 10.358 21.967 10.352 34.112 0.034 16.167-6.343 31.688-17.731 43.163s-26.86 17.969-43.027 18.060v0.031z" />
<glyph unicode="&#xe907;" glyph-name="arrow-right" horiz-adv-x="573" d="M555.446 491.446c23.99-23.994 23.99-62.898 0-86.893l-450.562-450.56c-23.994-23.99-62.895-23.99-86.889 0-23.994 23.994-23.994 62.898 0 86.893l407.116 407.114-407.116 407.115c-23.994 23.994-23.994 62.895 0 86.889s62.895 23.994 86.889 0l450.562-450.558z" />
<glyph unicode="&#xe908;" glyph-name="arrow-left" horiz-adv-x="573" d="M17.995 404.554c-23.994 23.994-23.994 62.898 0 86.893l450.558 450.558c23.994 23.994 62.898 23.994 86.893 0 23.99-23.994 23.99-62.895 0-86.889l-407.117-407.115 407.117-407.114c23.99-23.994 23.99-62.898 0-86.893-23.994-23.99-62.898-23.99-86.893 0l-450.558 450.56z" />
<glyph unicode="&#xe909;" glyph-name="arrow-right-long" horiz-adv-x="1229" d="M29.867 427.467c0 37.702 30.564 68.267 68.267 68.267h1032.533c37.704 0 68.267-30.564 68.267-68.267s-30.563-68.267-68.267-68.267h-1032.533c-37.703 0-68.267 30.564-68.267 68.267zM659.995 898.139c26.659 26.66 69.885 26.66 96.543 0l422.4-422.4c26.658-26.66 26.658-69.884 0-96.544l-422.4-422.401c-26.658-26.658-69.885-26.658-96.543 0s-26.659 69.885 0 96.543l374.129 374.13-374.129 374.128c-26.659 26.66-26.659 69.884 0 96.544z" />
<glyph unicode="&#xe90a;" glyph-name="play" horiz-adv-x="866" d="M794.986 494.789l-708.808 433.176c-12.156 7.429-27.377 7.714-39.803 0.745s-20.119-20.105-20.119-34.351v-866.349c0-14.247 7.694-27.383 20.119-34.351s27.646-6.685 39.803 0.743l708.808 433.176c11.708 7.155 18.847 19.887 18.847 33.606 0 13.722-7.139 26.451-18.847 33.606v0zM40.239 949.933c24.852 13.938 55.293 13.367 79.605-1.491v0l708.808-433.174c0.068-0.045 0.137-0.087 0.207-0.129 23.289-14.331 37.486-39.723 37.486-67.085 0-27.441-14.281-52.901-37.694-67.211l-708.809-433.176c-24.312-14.856-54.753-15.428-79.605-1.489h-0.001c-24.851 13.937-40.239 40.209-40.239 68.703v866.349c0 28.493 15.387 54.765 40.239 68.702zM787.43 448.144l-708.66 433.086v-866.349l708.66 433.262z" />
<glyph unicode="&#xe90b;" glyph-name="play2" horiz-adv-x="845" d="M800.717 480.832l-691.2 422.399c-5.822 3.532-12.48 5.453-19.289 5.564s-13.526-1.59-19.461-4.93c-5.935-3.34-10.875-8.198-14.313-14.077s-5.252-12.566-5.254-19.376v-844.799c0-6.822 1.817-13.519 5.265-19.407 3.447-5.885 8.4-10.747 14.35-14.085 5.949-3.336 12.68-5.028 19.5-4.9 6.82 0.125 13.483 2.066 19.304 5.624l691.2 422.4c5.614 3.428 10.253 8.243 13.471 13.983 3.218 5.737 4.91 12.206 4.91 18.785s-1.692 13.046-4.91 18.785c-3.218 5.737-7.857 10.552-13.471 13.983l-0.102 0.051z" />
<glyph unicode="&#xe90c;" glyph-name="minus" horiz-adv-x="8192" d="M416 448c0 282.77 229.233 512 512 512h6336c282.778 0 512-229.23 512-512 0-282.767-229.222-512-512-512h-6336c-282.767 0-512 229.233-512 512z" />
<glyph unicode="&#xe90d;" glyph-name="plus" d="M52 448c0 35.346 28.654 64 64 64h792c35.347 0 64-28.654 64-64s-28.653-64-64-64h-792c-35.346 0-64 28.654-64 64zM512 908c35.346 0 64-28.654 64-64v-792c0-35.347-28.654-64-64-64s-64 28.653-64 64v792c0 35.346 28.654 64 64 64z" />
<glyph unicode="&#xe90e;" glyph-name="search" d="M76.512 542.38c0 188.377 152.71 341.088 341.088 341.088s341.088-152.71 341.088-341.088c0-188.377-152.71-341.088-341.088-341.088s-341.088 152.71-341.088 341.088zM1023.977-10.569l-286.143 287.659c142.098 171.446 124.369 424.298-40.261 574.239s-418.035 144.027-575.492-13.43c-157.457-157.457-163.371-410.861-13.43-575.492s402.793-182.359 574.239-40.261l287.659-286.143z" />
<glyph unicode="&#xe90f;" glyph-name="close" d="M687.218 329.387l-118.613 118.613 118.613 118.613c6.458 7.085 10.414 16.55 10.414 26.938 0 22.119-17.931 40.050-40.050 40.050-10.403 0-19.879-3.966-26.999-10.469l0.031 0.028-118.613-118.556-118.613 118.556c-7.089 6.475-16.566 10.441-26.968 10.441-22.119 0-40.050-17.931-40.050-40.050 0-10.389 3.955-19.853 10.442-26.97l-0.029 0.032 118.613-118.613-118.613-118.613c-6.666-7.134-10.759-16.746-10.759-27.314 0-22.119 17.931-40.050 40.050-40.050 10.568 0 20.18 4.093 27.337 10.781l-0.023-0.021 118.613 118.613 118.613-118.613c7.134-6.666 16.746-10.759 27.314-10.759 22.119 0 40.050 17.931 40.050 40.050 0 10.568-4.093 20.18-10.781 27.337l0.021-0.023zM512 15.986c-0.084 0-0.184 0-0.285 0-238.438 0-431.73 193.292-431.73 431.73 0 0.1 0 0.2 0 0.3v-0.015c0 0.084 0 0.184 0 0.285 0 238.438 193.292 431.73 431.73 431.73 0.1 0 0.2 0 0.3 0h-0.015c0.084 0 0.184 0 0.285 0 238.438 0 431.73-193.292 431.73-431.73 0-0.1 0-0.2 0-0.3v0.015c0-0.084 0-0.184 0-0.285 0-238.438-193.292-431.73-431.73-431.73-0.1 0-0.2 0-0.3 0h0.015zM512 960c-283.022 0-512-229.035-512-512 0-283.022 228.978-512 512-512s512 228.978 512 512c0 282.965-228.978 512-512 512z" />
<glyph unicode="&#xe910;" glyph-name="check" d="M944.014 448c0 0.050 0 0.111 0 0.171 0 238.469-193.317 431.787-431.787 431.787-0.080 0-0.16 0-0.24 0h0.012c-0.068 0-0.148 0-0.228 0-238.469 0-431.787-193.317-431.787-431.787 0-0.060 0-0.12 0-0.18v0.010c0-0.068 0-0.148 0-0.228 0-238.469 193.317-431.787 431.787-431.787 0.080 0 0.16 0 0.24 0h-0.012c0.068 0 0.148 0 0.228 0 238.469 0 431.787 193.317 431.787 431.787 0 0.080 0 0.16 0 0.24v-0.012zM1024 448c0-283.022-229.035-512-512-512-283.022 0-512 228.978-512 512 0 282.965 229.035 512 512 512 283.022 0 512-229.035 512-512zM738.304 610.418c7.234-7.237 11.708-17.233 11.708-28.274s-4.474-21.037-11.708-28.274l-268.345-268.345c-7.237-7.234-17.233-11.708-28.274-11.708s-21.037 4.474-28.274 11.708l-127.715 127.715c-7.248 7.241-11.732 17.248-11.732 28.302 0 22.094 17.911 40.005 40.005 40.005 11.040 0 21.036-4.472 28.274-11.703v0l99.442-99.499 240.071 240.071c7.237 7.234 17.233 11.708 28.274 11.708s21.037-4.474 28.274-11.708v0z" />
<glyph unicode="&#xe911;" glyph-name="download" d="M749.829 570.629c19.994-19.995 19.994-52.412 0-72.408l-201.626-201.625c-9.6-9.6-22.625-14.996-36.204-14.996s-26.602 5.396-36.204 14.996l-201.574 201.574c-19.995 19.995-19.995 52.413 0 72.408s52.413 19.995 72.408 0l165.37-165.371 165.422 165.422c19.994 19.995 52.413 19.995 72.407 0zM512 921.753c28.278 0 51.2-22.923 51.2-51.2v-537.6c0-28.278-22.922-51.2-51.2-51.2-28.277 0-51.2 22.922-51.2 51.2v537.6c0 28.277 22.923 51.2 51.2 51.2zM51.2 460.8c28.277 0 51.2-22.922 51.2-51.2v-332.8h819.2v332.8c0 28.278 22.922 51.2 51.2 51.2s51.2-22.922 51.2-51.2v-345.6c0-23.762-9.441-46.551-26.245-63.355s-39.593-26.245-63.355-26.245h-844.8c-23.763 0-46.553 9.441-63.357 26.245-16.803 16.799-26.243 39.593-26.243 63.355v345.6c0 28.278 22.923 51.2 51.2 51.2z" />
<glyph unicode="&#xe912;" d="M51.2 448c0 254.49 206.31 460.8 460.8 460.8s460.8-206.31 460.8-460.8c0-254.49-206.31-460.8-460.8-460.8s-460.8 206.31-460.8 460.8z" />
<glyph unicode="&#xe913;" d="M750.976 589.714c14.643-15.34 14.080-39.647-1.262-54.29l-281.6-268.8c-14.838-14.164-38.19-14.164-53.028 0l-140.8 134.4c-15.342 14.643-15.905 38.95-1.262 54.29 14.643 15.342 38.95 15.905 54.29 1.262l114.286-109.089 255.086 243.489c15.34 14.643 39.647 14.080 54.29-1.262z" />
<glyph unicode="&#xe914;" d="M512 870.4c-233.283 0-422.4-189.117-422.4-422.4s189.117-422.4 422.4-422.4c233.283 0 422.4 189.117 422.4 422.4s-189.117 422.4-422.4 422.4zM12.8 448c0 275.697 223.503 499.2 499.2 499.2s499.2-223.503 499.2-499.2c0-275.697-223.503-499.2-499.2-499.2s-499.2 223.503-499.2 499.2z" />
</font>
</defs>
</svg>
